Downloaden APK | Młody papieżThe Young Pope | Rise Of The Tomb Raider (2016 ) ( MULTI ) ( PC )
 * Dettagli Torrent   globale  | Commenti (1) 


- Galaxy Quest (1999).720p.H264.italian.english.Ac3-5.1.sub.ita.eng-MIRCrew -


Download via torrent:
Categoria bittorrent BDRip
Descrizione
Galaxy Quest (1999).720p.H264.italian.english.Ac3-5.1.sub.ita.eng-MIRCrew


by www.mircrew-releases.com


NO FOUND ONLY ORIGINAL RELEASE



My release is always in double track audio italian and Original audio
for select it use VLC or dvd player home
not use wmp

Galaxy Quest (1999)

Quality MIRCrew on HD 720p da  1,9 gb








Paese di produzione Stati Uniti d'America
Anno 1999
Durata 102 min
Rapporto 2,35:1
Genere commedia, fantascienza
Regia Dean Parisot
Soggetto David Howard
Sceneggiatura David Howard, Robert Gordon
Fotografia Jerzy Zielinski
Montaggio Don Zimmerman
Effetti speciali Keith Marbory, Matt Sweeney
Musiche David Newman
Scenografia Linda DeScenna
Costumi Albert Wolsky



   Tim Allen: Jason Nesmith
   Sigourney Weaver: Gwen DeMarco
   Alan Rickman: Alexander Dane
   Tony Shalhoub: Fred Kwan
   Sam Rockwell: Guy Fleegman
   Daryl Mitchell: Tommy Webber
   Enrico Colantoni: Mathesar
   Robin Sachs: Sarris
   Patrick Breen: Quellek
   Missi Pyle: Laliari
   Jed Rees: Teb
   Justin Long: Brandon
   Jeremy Howard: Kyle
   Kaitlin Cullum: Katelyn
   Jonathan Feyer: Hollister
   Corbin Bleu: Young Tommy
   Wayne Pére: Lathe
   Sam Lloyd: Neru



Galaxy Quest, una vecchia serie televisiva di fantascienza andata in onda negli anni tra il 1978 e il 1982, ha generato un seguito affezionato di entusiasti che seguono ancora i propri beniamini, anche diciotto anni dopo la prematura sospensione del programma.



The alumni cast of a space opera television series have to play their roles as the real thing when an alien race needs their help. However, they also have to defend both Earth and the alien race from a reptilian warlord.










General
Unique ID                                : 20631839022141077006115583773586048399 (0xF858C33516E1D975F11A149A5DD458F)
Complete name                            : Galaxy Quest (1999).720p.h264.ita.eng.sub.ita.eng-MIRCrew\Galaxy Quest (1999).720p.mkv
Format                                   : Matroska
Format version                           : Version 2
File size                                : 1.90 GiB
Duration                                 : 1h 42mn
Overall bit rate                         : 2 657 Kbps
Movie name                               : MIRCrew
Encoded date                             : UTC 2012-06-29 00:30:53
Writing application                      : Lavf54.63.100
Writing library                          : Lavf54.63.100

Video
ID                                       : 1
Format                                   : AVC
Format/Info                              : Advanced Video Codec
Format profile                           : [email protected]
Format settings, CABAC                   : Yes
Format settings, ReFrames                : 2 frames
Codec ID                                 : V_MPEG4/ISO/AVC
Duration                                 : 1h 42mn
Bit rate                                 : 1 900 Kbps
Width                                    : 1 280 pixels
Height                                   : 544 pixels
Display aspect ratio                     : 2.35:1
Frame rate mode                          : Variable
Frame rate                               : 23.976 fps
Color space                              : YUV
Chroma subsampling                       : 4:2:0
Bit depth                                : 8 bits
Scan type                                : Progressive
Bits/(Pixel*Frame)                       : 0.114
Stream size                              : 1.31 GiB (69%)
Title                                    : Galaxy Quest (1999)
Writing library                          : x264 core 130 r2273
Encoding settings                        : cabac=1 / ref=2 / deblock=1:0:0 / analyse=0x1:0x131 / me=hex / subme=7 / psy=1 / psy_rd=1.00:0.00 / mixed_ref=0 / me_range=16 / chroma_me=1 / trellis=1 / 8x8dct=0 / cqm=0 / deadzone=21,11 / fast_pskip=1 / chroma_qp_offset=-2 / threads=3 / lookahead_threads=1 / sliced_threads=0 / nr=0 / decimate=1 / interlaced=0 / bluray_compat=0 / constrained_intra=0 / bframes=3 / b_pyramid=0 / b_adapt=1 / b_bias=0 / direct=3 / weightb=1 / open_gop=0 / weightp=2 / keyint=230 / keyint_min=23 / scenecut=40 / intra_refresh=0 / rc_lookahead=40 / rc=abr / mbtree=1 / bitrate=1900 / ratetol=1.0 / qcomp=0.60 / qpmin=10 / qpmax=69 / qpstep=4 / vbv_maxrate=24000 / vbv_bufsize=24000 / nal_hrd=none / ip_ratio=1.40 / aq=1:1.00
Language                                 : Italian
Default                                  : Yes
Forced                                   : No

Audio #1
ID                                       : 2
Format                                   : AC-3
Format/Info                              : Audio Coding 3
Mode extension                           : CM (complete main)
Codec ID                                 : A_AC3
Duration                                 : 1h 42mn
Bit rate mode                            : Constant
Bit rate                                 : 384 Kbps
Channel(s)                               : 2 channels
Channel positions                        : Front: L R
Sampling rate                            : 48.0 KHz
Bit depth                                : 16 bits
Compression mode                         : Lossy
Delay relative to video                  : 1mn 5s
Stream size                              : 281 MiB (14%)
Title                                    : ITA AC3 5.1 448 kbps
Language                                 : Italian
Default                                  : Yes
Forced                                   : No

Audio #2
ID                                       : 3
Format                                   : AC-3
Format/Info                              : Audio Coding 3
Mode extension                           : CM (complete main)
Codec ID                                 : A_AC3
Duration                                 : 1h 42mn
Bit rate mode                            : Constant
Bit rate                                 : 384 Kbps
Channel(s)                               : 2 channels
Channel positions                        : Front: L R
Sampling rate                            : 48.0 KHz
Bit depth                                : 16 bits
Compression mode                         : Lossy
Delay relative to video                  : 1mn 5s
Stream size                              : 281 MiB (14%)
Title                                    : ENG AC3 5.1 448 kbps
Language                                 : English
Default                                  : No
Forced                                   : No

Menu
00:00:00.000                             : :The Show Must Go on (Main Titles)
00:06:14.248                             : :Laughing Stock
00:11:09.543                             : :Our Last Hope
00:15:19.418                             : :A New Commander
00:20:05.913                             : :Commander No Show
00:25:26.525                             : :Want to See the Ship
00:33:06.234                             : :The Omega 13 Device
00:38:25.136                             : :Stalling with Billy
00:42:12.613                             : :Sarris Attacks
00:46:37.085                             : :You Broke the Ship
00:50:24.187                             : :Beryllium Spheres
00:55:22.360                             : id Any of You Ever Watch the Show?
01:02:02.051                             : :Rock Monster
01:07:23.289                             : :We Are Not What We Seem
01:10:33.479                             : :Where's The Happy Ending
01:16:05.519                             : :It's All Real
01:23:24.541                             : :A Clever Deception Indeed
01:28:24.382                             : :Correct a Single Mistake
01:32:37.927                             : :The Big Entrance
01:37:30.261                             : :End Credits





Info: Per scaricare devi usare un client come uTorrent o Transmission
AnnounceURL
udp://tracker.coppersurfer.tk:6969/announce
Hash 5afa3e9841eb942cc2ddc7275ed9ee2105b7ad52
Peers seeds: 64 , leech: 22
Size 1.90 GB
Completato 751x
Aggiunto 06.10.18 - 15:10:51
Uploader   robbyrs
Votazione (Voti: 0)


Condividi questo bittorrent:


html/blog:


bbcode/forum:




Aggiungi Commento
Ultimi commenti
 Picard59Picard59   
audio molto basso
08/10 08.02
Tutti commenti (1)


counter