The Commuter | Gordon Ramsay's Ultimate Home Cooking | Sicario : La Guerre des cartels
 * Dettagli Torrent   globale  | Commenti (0) 


- La voce della pietra - Voice from the Stone (2017).720p.H264.italian.english.Ac3-5.1.sub.ita-MIRCrew -


Download via torrent:
Categoria bittorrent BDRip
Descrizione
La voce della pietra - Voice from the Stone (2017).720p.H264.italian.english.Ac3-5.1.sub.ita-MIRCrew


by www.mircrew-releases.com


NO FOUND ONLY ORIGINAL RELEASE



My release is always in double track audio italian and Original audio
for select it use VLC or dvd player home
not use wmp

La voce della pietra - Voice from the Stone (2017)

Quality MIRCrew on HD 720p da  1,7 gb








  GENERE: Drammatico, Thriller
  ANNO: 2018
  REGIA: Eric D. Howell
  PAESE: USA
  DURATA: 94 Min




Emilia Clarke, Marton Csokas, Caterina Murino, Kate Linder, Lisa Gastoni. Remo Girone, Giampiero Judica, Edward Dring, Nicole Cadeddu, Antonella Britti



Basato sul romanzo "La voce della pietra" di Silvio Raffo, il film ambientato nella Toscana degli anni cinquanta racconta di un'infermiera che aiuta un ragazzo a superare la morte traumatica della madre. Mentre lavora col bambino, viene irretita da una forza malefica che si trova all'interno del castello della famiglia.



Set in 1950s Tuscany, Voice from the Stone is the haunting and suspenseful story of Verena, a solemn nurse drawn to aid a young boy who has fallen silent since the sudden passing of his mother.  










General
Complete name                            : La voce della pietra - Voice from the Stone (2017).720p.h264.ita.eng.sub.ita-MIRCrew.mkv
Format                                   : Matroska
Format version                           : Version 2
File size                                : 1.71 GiB
Duration                                 : 1h 30mn
Overall bit rate                         : 2 712 Kbps
Movie name                               : MIRCrew
Encoded date                             : UTC 2018-09-29 15:12:43
Writing application                      : Lavf54.63.100
Writing library                          : Lavf54.63.100

Video
ID                                       : 1
Format                                   : AVC
Format/Info                              : Advanced Video Codec
Format profile                           : [email protected]
Format settings, CABAC                   : Yes
Format settings, ReFrames                : 2 frames
Codec ID                                 : V_MPEG4/ISO/AVC
Duration                                 : 1h 30mn
Bit rate                                 : 1 762 Kbps
Nominal bit rate                         : 1 850 Kbps
Width                                    : 1 280 pixels
Height                                   : 528 pixels
Display aspect ratio                     : 2.40:1
Frame rate mode                          : Variable
Frame rate                               : 24.000 fps
Color space                              : YUV
Chroma subsampling                       : 4:2:0
Bit depth                                : 8 bits
Scan type                                : Progressive
Bits/(Pixel*Frame)                       : 0.109
Stream size                              : 1.11 GiB (65%)
Writing library                          : x264 core 130 r2273
Encoding settings                        : cabac=1 / ref=2 / deblock=1:0:0 / analyse=0x1:0x131 / me=hex / subme=7 / psy=1 / psy_rd=1.00:0.00 / mixed_ref=0 / me_range=16 / chroma_me=1 / trellis=1 / 8x8dct=0 / cqm=0 / deadzone=21,11 / fast_pskip=1 / chroma_qp_offset=-2 / threads=6 / lookahead_threads=1 / sliced_threads=0 / nr=0 / decimate=1 / interlaced=0 / bluray_compat=0 / constrained_intra=0 / bframes=3 / b_pyramid=0 / b_adapt=1 / b_bias=0 / direct=3 / weightb=1 / open_gop=0 / weightp=2 / keyint=240 / keyint_min=24 / scenecut=40 / intra_refresh=0 / rc_lookahead=40 / rc=abr / mbtree=1 / bitrate=1850 / ratetol=1.0 / qcomp=0.60 / qpmin=10 / qpmax=69 / qpstep=4 / vbv_maxrate=24000 / vbv_bufsize=24000 / nal_hrd=none / ip_ratio=1.40 / aq=1:1.00
Language                                 : Italian
Default                                  : Yes
Forced                                   : No
DURATION                                 : 01:30:15.167000000

Audio #1
ID                                       : 2
Format                                   : AC-3
Format/Info                              : Audio Coding 3
Mode extension                           : CM (complete main)
Codec ID                                 : A_AC3
Duration                                 : 1h 30mn
Bit rate mode                            : Constant
Bit rate                                 : 448 Kbps
Channel(s)                               : 6 channels
Channel positions                        : Front: L C R, Side: L R, LFE
Sampling rate                            : 48.0 KHz
Bit depth                                : 16 bits
Compression mode                         : Lossy
Delay relative to video                  : 1mn 5s
Stream size                              : 289 MiB (17%)
Title                                    : AC3
Language                                 : Italian
Default                                  : No
Forced                                   : No
DURATION                                 : 01:30:15.328000000


Audio #2
ID                                       : 3
Format                                   : AC-3
Format/Info                              : Audio Coding 3
Mode extension                           : CM (complete main)
Codec ID                                 : A_AC3
Duration                                 : 1h 30mn
Bit rate mode                            : Constant
Bit rate                                 : 448 Kbps
Channel(s)                               : 6 channels
Channel positions                        : Front: L C R, Side: L R, LFE
Sampling rate                            : 48.0 KHz
Bit depth                                : 16 bits
Compression mode                         : Lossy
Delay relative to video                  : 1mn 5s
Stream size                              : 289 MiB (17%)
Title                                    : AC3
Language                                 : English
Default                                  : No
Forced                                   : No
DURATION                                 : 01:30:15.328000000










Info: Per scaricare devi usare un client come uTorrent o Transmission
AnnounceURL
udp://tracker.coppersurfer.tk:6969/announce
Hash ac13d503bcfb5b646ba119ef4c1304eef8a5d4f8
Peers seeds: 42 , leech: 9
Size 1.71 GB
Completato 572x
Aggiunto 06.10.18 - 16:10:05
Uploader   robbyrs
Votazione (Voti: 0)


Condividi questo bittorrent:


html/blog:


bbcode/forum:




Aggiungi Commento


counter