TV Shows | Richard K Miller Associates | Magazines Aéronautique
 * Dettagli Torrent   globale  | Commenti (0) 


- Elementary.6x13.Respira.ITA.ENG.1080p.AMZN.WEB-DLMux.H.264-Morpheus.mkv -


Download via torrent:
Categoria bittorrent SerieTv
Descrizione
[center]
GIUSEPPEiCV & LITTLELINX
HANNO IL PIACERE DI PRESENTARE


STAGIONE 6
WEB-DLMUX 1080p





.: Dati Serie :.

Nazione: Stati Uniti d'America
Anno: 2012
Genere: commedia, drammatico
Stagione 6
Episodi: 21
Durata: 43 min circa
Lingua: ITA - ENG
Interpreti e personaggi
Jonny Lee Miller: Sherlock Holmes
Lucy Liu: Dr. Joan Watson
Aidan Quinn: Cap. Thomas Gregson
Jon Michael Hill:Det. Marcus Bell
John Noble: Morland Holmes
Nelsan Ellis: Shinwell Johnson
Desmond Harrington: Michael

A modern take on the cases of Sherlock Holmes, with the detective now living in New York City.

Dopo essere stato per anni consulente per Scotland Yard in Gran Bretagna e dopo essere uscito da una clinica per disintossicarsi dall'alcool e dalle droghe, Sherlock Holmes si stabilisce negli Stati Uniti a New York, dove accetta di collaborare con la polizia e risolvere diversi casi con l'aiuto della logica e del suo intuito. Il detective è affiancato, inizialmente suo malgrado, dall'ex chirurgo Joan Watson, la sua terapista di riabilitazione, che diventa in seguito sua assistente investigativa.

A coadiuvare le indagini per conto del New York City Police Department sono il capitano Thomas Gregson (ispirato all'ispettore Tobias Gregson che compare in alcuni libri di Arthur Conan Doyle) e il detective Marcus Bell.


[center].: Screenshot :.



.: Caratteristiche Tecniche :.[/center]
[spoiler]
Elementary.6x01.La.Diagnosi.ITA.ENG.1080p.AMZN.WEB-DLMux.H.264-Morpheus.mkv
Format                                   : Matroska
Format version                           : Version 4 / Version 2
File size                                : 2.61 GiB
Duration                                 : 38mn 54s
Overall bit rate mode                    : Variable
Overall bit rate                         : 9 619 Kbps
Encoded date                             : UTC 2018-07-27 20:48:06
Writing application                      : mkvmerge v7.6.0 ('Garden of Dreams') 64bit built on Feb  8 2015 15:12:28
Writing library                          : libebml v1.3.1 + libmatroska v1.4.2
_STATISTICS_WRITING_APP                  : mkvmerge v7.6.0 ('Garden of Dreams') 64bit built on Feb  8 2015 15:12:28
_STATISTICS_WRITING_DATE_UTC             : 2018-07-27 20:48:06
_STATISTICS_TAGS                         : BPS DURATION NUMBER_OF_FRAMES NUMBER_OF_BYTES
DURATION                                 : 00:38:54.080000000
NUMBER_OF_FRAMES                         : 72940
NUMBER_OF_BYTES                          : 112035840

Video
ID                                       : 1
Format                                   : AVC
Format/Info                              : Advanced Video Codec
Format profile                           : [email protected]
Format settings, CABAC                   : Yes
Format settings, ReFrames                : 4 frames
Codec ID                                 : V_MPEG4/ISO/AVC
Duration                                 : 38mn 54s
Bit rate mode                            : Variable
Bit rate                                 : 8 851 Kbps
Maximum bit rate                         : 15.0 Mbps
Width                                    : 1 920 pixels
Height                                   : 1 080 pixels
Display aspect ratio                     : 16:9
Frame rate                               : 25.000 fps
Original frame rate                      : 23.976 fps
Color space                              : YUV
Chroma subsampling                       : 4:2:0
Bit depth                                : 8 bits
Scan type                                : Progressive
Bits/(Pixel*Frame)                       : 0.171
Stream size                              : 2.41 GiB (92%)
Default                                  : Yes
Forced                                   : No
Color primaries                          : BT.709-5, BT.1361, IEC 61966-2-4, SMPTE RP177
Transfer characteristics                 : BT.709-5, BT.1361
Matrix coefficients                      : BT.709-5, BT.1361, IEC 61966-2-4 709, SMPTE RP177

Audio #1
ID                                       : 2
Format                                   : AC-3
Format/Info                              : Audio Coding 3
Mode extension                           : CM (complete main)
Codec ID                                 : A_AC3
Duration                                 : 38mn 54s
Bit rate mode                            : Constant
Bit rate                                 : 192 Kbps
Channel(s)                               : 2 channels
Channel positions                        : Front: L R
Sampling rate                            : 48.0 KHz
Bit depth                                : 16 bits
Compression mode                         : Lossy
Stream size                              : 53.4 MiB (2%)
Title                                    : ITA
Language                                 : Italian
Default                                  : Yes
Forced                                   : Yes

Audio #2
ID                                       : 3
Format                                   : AC-3
Format/Info                              : Audio Coding 3
Mode extension                           : CM (complete main)
Codec ID                                 : A_AC3
Duration                                 : 38mn 54s
Bit rate mode                            : Constant
Bit rate                                 : 384 Kbps
Channel(s)                               : 6 channels
Channel positions                        : Front: L C R, Side: L R, LFE
Sampling rate                            : 48.0 KHz
Bit depth                                : 16 bits
Compression mode                         : Lossy
Stream size                              : 107 MiB (4%)
Title                                    : ENG
Language                                 : English
Default                                  : No
Forced                                   : No

Text #1
ID                                       : 4
Format                                   : UTF-8
Codec ID                                 : S_TEXT/UTF8
Codec ID/Info                            : UTF-8 Plain Text
Title                                    : ITA - Forced
Language                                 : Italian
Default                                  : Yes
Forced                                   : Yes

Text #2
ID                                       : 5
Format                                   : UTF-8
Codec ID                                 : S_TEXT/UTF8
Codec ID/Info                            : UTF-8 Plain Text
Language                                 : Italian
Default                                  : No
Forced                                   : No

Text #3
ID                                       : 6
Format                                   : UTF-8
Codec ID                                 : S_TEXT/UTF8
Codec ID/Info                            : UTF-8 Plain Text
Title                                    : SDH
Language                                 : English
Default                                  : No
Forced                                   : No


[/spoiler]

[center].: Ringraziamenti :.





Info: Per scaricare devi usare un client come uTorrent o Transmission
AnnounceURL
http://tracker.tntvillage.scambioetico.org:2710/announce
Hash 8f7ed803c848e5f9c455c6c8cdb022bd8ef276e5
Peers seeds: 0 , leech: 0
Size 2.00 GB
Completato 0x
Aggiunto 07.10.18 - 21:10:09
Uploader   ppb1
Votazione (Voti: 0)


Condividi questo bittorrent:


html/blog:


bbcode/forum:




Aggiungi Commento


counter