The Goldbergs 2013 S6E3 Episode 3 | Forrest Gump - O Contador de Histórias 4K Ultra HD Download Torrent Clássico / Drama / Romance Idioma: Inglês / Português 1994 MKV Torrent DownloadVídeo 10 / Áudio 10Sinopse: Forrest Gump - O Contador de Histórias 4K Ultra HD dublado e com qualidade de blu-ray (O filme tem diversos áudios, selecione o áudio em...

| Jurassic World: Fall
 * Dettagli Torrent   globale  | Commenti (0) 


- The Walking Dead - 9x01 Un nuovo inizio.720p.H264.ita.eng.sub.ita.eng-MIRCrew -


Download via torrent:
Categoria bittorrent SerieTv
Descrizione
The Walking Dead - 9x01 Un nuovo inizio.720p.H264.ita.eng.sub.ita.eng-MIRCrew


by www.mircrew-releases.com



La nona stagione della serie televisiva The Walking Dead, composta da sedici episodi, è trasmessa in prima visione assoluta negli Stati Uniti d'America dall'emittente AMC dal 7 ottobre 2018

È trascorso un anno e mezzo dalla fine della guerra contro i salvatori.

In una Alexandria ricostruita e prospera, Rick, ora con i capelli più corti e grigi, guarda felicemente Michonne dipingere con Judith. I tre vanno fuori dalle mura per vedere uno stormo di uccelli nel campo.

 Episodi:


1     Un nuovo. inizio
2 The Bridge
3 Warning Signs 21 ottobre 2018 22 ottobre 2018
4 The Obliged 28 ottobre 2018 29 ottobre 2018
5 What Comes After 4 novembre 2018 5 novembre 2018
6 Who Are You Now 11 novembre 2018 12 novembre 2018
7 Stradivarius 18 novembre 2018 19 novembre 2018
8 Evolution 25 novembre 2018 26 novembre 2018







Dati file:  


General
Unique ID                                : 130874982699297834337245588230696782398 (0x62759AD52AD014FB398B3F233496CA3E)
Complete name                            : The Walking Dead - 9x01 Un nuovo. inizio.ita.eng.sub.ita.eng-MIRCrew\The Walking Dead  9x01 Un nuovo. nizio.ita.eng.sub.ita.eng-MIRCrew.mkv
Format                                   : Matroska
Format version                           : Version 2
File size                                : 908 MiB
Duration                                 : 56mn 10s
Overall bit rate                         : 2 259 Kbps
Movie name                               : MIRCrew
Encoded date                             : UTC 2018-10-09 11:23:16
Writing application                      : Lavf54.63.100
Writing library                          : Lavf54.63.100

Video
ID                                       : 1
Format                                   : AVC
Format/Info                              : Advanced Video Codec
Format profile                           : [email protected]
Format settings, CABAC                   : Yes
Format settings, ReFrames                : 2 frames
Codec ID                                 : V_MPEG4/ISO/AVC
Duration                                 : 56mn 10s
Bit rate                                 : 1 900 Kbps
Width                                    : 1 280 pixels
Height                                   : 720 pixels
Display aspect ratio                     : 16:9
Frame rate mode                          : Variable
Frame rate                               : 25.000 fps
Color space                              : YUV
Chroma subsampling                       : 4:2:0
Bit depth                                : 8 bits
Scan type                                : Progressive
Bits/(Pixel*Frame)                       : 0.082
Stream size                              : 735 MiB (81%)
Writing library                          : x264 core 130 r2273
Encoding settings                        : cabac=1 / ref=2 / deblock=1:0:0 / analyse=0x1:0x131 / me=hex / subme=7 / psy=1 / psy_rd=1.00:0.00 / mixed_ref=0 / me_range=16 / chroma_me=1 / trellis=1 / 8x8dct=0 / cqm=0 / deadzone=21,11 / fast_pskip=1 / chroma_qp_offset=-2 / threads=6 / lookahead_threads=1 / sliced_threads=0 / nr=0 / decimate=1 / interlaced=0 / bluray_compat=0 / constrained_intra=0 / bframes=3 / b_pyramid=0 / b_adapt=1 / b_bias=0 / direct=3 / weightb=1 / open_gop=0 / weightp=2 / keyint=250 / keyint_min=25 / scenecut=40 / intra_refresh=0 / rc_lookahead=40 / rc=abr / mbtree=1 / bitrate=1900 / ratetol=1.0 / qcomp=0.60 / qpmin=10 / qpmax=69 / qpstep=4 / vbv_maxrate=24000 / vbv_bufsize=24000 / nal_hrd=none / ip_ratio=1.40 / aq=1:1.00
Language                                 : Italian
Default                                  : Yes
Forced                                   : No
_STATISTICS_WRITING_APP                  : mkvmerge v7.1.0 ('Good Love') 32bit built on Jul 27 2014 12:59:18
_STATISTICS_WRITING_DATE_UTC             : 2018-10-08 21:58:55
_STATISTICS_TAGS                         : BPS DURATION NUMBER_OF_FRAMES NUMBER_OF_BYTES
DURATION                                 : 00:56:10.280000000
NUMBER_OF_FRAMES                         : 84257
NUMBER_OF_BYTES                          : 2322738382

Audio #1
ID                                       : 2
Format                                   : AC-3
Format/Info                              : Audio Coding 3
Mode extension                           : CM (complete main)
Codec ID                                 : A_AC3
Duration                                 : 56mn 10s
Bit rate mode                            : Constant
Bit rate                                 : 192 Kbps
Channel(s)                               : 2 channels
Channel positions                        : Front: L R
Sampling rate                            : 48.0 KHz
Bit depth                                : 16 bits
Compression mode                         : Lossy
Delay relative to video                  : 1mn 5s
Stream size                              : 77.1 MiB (8%)
Title                                    : ITA
Language                                 : Italian
Default                                  : Yes
Forced                                   : Yes
DURATION                                 : 00:56:10.432000000
NUMBER_OF_FRAMES                         : 105326
NUMBER_OF_BYTES                          : 80890368
_STATISTICS_WRITING_APP                  : mkvmerge v7.1.0 ('Good Love') 32bit built on Jul 27 2014 12:59:18
_STATISTICS_WRITING_DATE_UTC             : 2018-10-08 21:58:55
_STATISTICS_TAGS                         : BPS DURATION NUMBER_OF_FRAMES NUMBER_OF_BYTES

Audio #2
ID                                       : 3
Format                                   : AC-3
Format/Info                              : Audio Coding 3
Mode extension                           : CM (complete main)
Codec ID                                 : A_AC3
Duration                                 : 56mn 10s
Bit rate mode                            : Constant
Bit rate                                 : 192 Kbps
Channel(s)                               : 2 channels
Channel positions                        : Front: L R
Sampling rate                            : 48.0 KHz
Bit depth                                : 16 bits
Compression mode                         : Lossy
Delay relative to video                  : 1mn 5s
Stream size                              : 77.1 MiB (8%)
Title                                    : ENG
Language                                 : English
Default                                  : No
Forced                                   : No
DURATION                                 : 00:56:10.368000000
NUMBER_OF_FRAMES                         : 105324
NUMBER_OF_BYTES                          : 161777664
_STATISTICS_WRITING_APP                  : mkvmerge v7.1.0 ('Good Love') 32bit built on Jul 27 2014 12:59:18
_STATISTICS_WRITING_DATE_UTC             : 2018-10-08 21:58:55
_STATISTICS_TAGS                         : BPS DURATION NUMBER_OF_FRAMES NUMBER_OF_BYTES





Info: Per scaricare devi usare un client come uTorrent o Transmission
AnnounceURL
udp://tracker.coppersurfer.tk:6969/announce
Hash 6468d961f831ef3de4bd3e7dc7adbb5be8e2cb20
Peers seeds: 80 , leech: 70
Size 907.75 MB
Completato 200x
Aggiunto 09.10.18 - 15:10:30
Uploader   robbyrs
Votazione (Voti: 0)


Condividi questo bittorrent:


html/blog:


bbcode/forum:




Aggiungi Commento


counter